<?xml version="1.0" standalone="no"?>
<!DOCTYPE svg PUBLIC "-//W3C//DTD SVG 1.1//EN" "http://www.w3.org/Graphics/SVG/1.1/DTD/svg11.dtd" >
<svg xmlns="http://www.w3.org/2000/svg" xmlns:xlink="http://www.w3.org/1999/xlink" version="1.1">
<metadata>
Created by FontForge 20161003 at Tue Feb 27 14:43:37 2018
 By www-data
Copyright (c) 2010 by The Entente/Colophon. All rights reserved.
</metadata>
<defs>
<font id="Apercu" horiz-adv-x="560" >
  <font-face 
    font-family="Apercu"
    font-weight="400"
    font-stretch="normal"
    units-per-em="1000"
    panose-1="2 0 5 6 4 0 0 2 0 4"
    ascent="800"
    descent="-200"
    x-height="504"
    cap-height="700"
    bbox="-85 -235 1200 949"
    underline-thickness="50"
    underline-position="-100"
    stemh="76"
    stemv="88"
    unicode-range="U+0020-FB02"
  />
<missing-glyph horiz-adv-x="621" 
d="M97 0v700h427v-700h-427zM440 624h-259v-548h259v548z" />
    <glyph glyph-name="fi" unicode="fi" horiz-adv-x="544" 
d="M47 428v76h72v16c0 125 90 188 195 188c52 0 96 -10 129 -33l-18 -72c-33 20 -74 29 -112 29c-67 0 -110 -36 -110 -111v-17h257v-504h-84v428h-173v-428h-84v428h-72z" />
    <glyph glyph-name="fl" unicode="fl" horiz-adv-x="589" 
d="M47 428v76h72v26c0 121 85 178 185 178h201v-708h-84v632h-118c-58 0 -100 -33 -100 -101v-27h116v-76h-116v-428h-84v428h-72z" />
    <glyph glyph-name=".notdef" horiz-adv-x="621" 
d="M97 0v700h427v-700h-427zM440 624h-259v-548h259v548z" />
    <glyph glyph-name=".null" horiz-adv-x="0" 
 />
    <glyph glyph-name="CR" horiz-adv-x="268" 
 />
    <glyph glyph-name="space" unicode=" " horiz-adv-x="268" 
 />
    <glyph glyph-name="numbersign" unicode="#" horiz-adv-x="722" 
d="M112 424v68h134l43 208h73l-43 -208h142l42 208h73l-42 -208h116v-68h-130l-30 -148h120v-68h-134l-43 -208h-73l43 208h-142l-42 -208h-73l42 208h-116v68h130l30 148h-120zM305 424l-30 -148h142l30 148h-142z" />
    <glyph glyph-name="dollar" unicode="$" horiz-adv-x="523" 
d="M440 596l-71 -46c-34 61 -69 75 -111 75c-50 0 -84 -43 -84 -88c0 -69 61 -98 135 -135c79 -40 167 -88 167 -201c0 -57 -20 -106 -54 -143c-30 -33 -70 -55 -116 -62v-86h-80v85c-96 16 -166 90 -186 186l76 46c23 -83 60 -151 150 -151c36 0 73 14 95 40
c17 21 27 51 27 83c0 68 -64 104 -132 136c-91 43 -170 87 -170 195c0 91 62 160 140 175v85h80v-86c68 -13 106 -54 134 -108z" />
    <glyph glyph-name="percent" unicode="%" horiz-adv-x="842" 
d="M58 548c0 89 69 160 160 160s160 -71 160 -160s-69 -160 -160 -160s-160 71 -160 160zM131 548c0 -51 33 -90 87 -90s87 39 87 90s-33 90 -87 90s-87 -39 -87 -90zM464 152c0 89 69 160 160 160s160 -71 160 -160s-69 -160 -160 -160s-160 71 -160 160zM537 152
c0 -51 33 -90 87 -90s87 39 87 90s-33 90 -87 90s-87 -39 -87 -90zM664 729l50 -39l-538 -719l-50 40z" />
    <glyph glyph-name="ampersand" unicode="&#x26;" horiz-adv-x="677" 
d="M286 -8c-126 0 -211 77 -211 208c0 105 68 179 135 213c-25 34 -61 86 -61 146c0 87 67 149 155 149c101 0 156 -65 156 -140c0 -27 -9 -57 -25 -85c-20 -35 -64 -67 -111 -91l146 -185c16 33 31 73 47 119l56 -61c-15 -43 -32 -85 -52 -123l112 -142h-101l-59 74
c-44 -50 -103 -82 -187 -82zM286 70c59 0 103 21 139 65l-172 221c-55 -31 -96 -83 -96 -158c0 -84 62 -128 129 -128zM304 636c-46 0 -75 -36 -75 -81c0 -35 22 -74 49 -109c60 30 103 63 103 117c0 41 -31 73 -77 73z" />
    <glyph glyph-name="quotesingle" unicode="'" horiz-adv-x="288" 
d="M113 476l-25 232h112l-25 -232h-62z" />
    <glyph glyph-name="parenleft" unicode="(" horiz-adv-x="292" 
d="M178 750h84c-68 -108 -105 -229 -105 -400s37 -292 105 -400h-84c-61 96 -107 214 -107 400s46 304 107 400z" />
    <glyph glyph-name="parenright" unicode=")" horiz-adv-x="292" 
d="M30 750h84c61 -96 107 -214 107 -400s-46 -304 -107 -400h-84c68 108 105 229 105 400s-37 292 -105 400z" />
    <glyph glyph-name="asterisk" unicode="*" horiz-adv-x="488" 
d="M278 708v-138l131 43l21 -65l-130 -43l80 -111l-55 -39l-81 111l-81 -111l-55 39l80 111l-130 43l21 65l131 -43v138h68z" />
    <glyph glyph-name="plus" unicode="+" horiz-adv-x="568" 
d="M248 539h74v-183h183v-74h-183v-183h-74v183h-183v74h183v183z" />
    <glyph glyph-name="comma" unicode="," horiz-adv-x="318" 
d="M68 -107l66 217h114l-116 -217h-64z" />
    <glyph glyph-name="hyphen" unicode="-" horiz-adv-x="481" 
d="M71 280v74h339v-74h-339z" />
    <glyph glyph-name="period" unicode="." horiz-adv-x="306" 
d="M90 59c0 35 27 63 63 63c35 0 63 -28 63 -63c0 -36 -28 -63 -63 -63c-36 0 -63 27 -63 63z" />
    <glyph glyph-name="slash" unicode="/" horiz-adv-x="543" 
d="M455 750h84l-436 -800h-84z" />
    <glyph glyph-name="zero" unicode="0" horiz-adv-x="624" 
d="M312 708c163 0 246 -140 246 -358s-83 -358 -246 -358s-246 140 -246 358s83 358 246 358zM312 628c-107 0 -158 -107 -158 -278s51 -278 158 -278s158 107 158 278s-51 278 -158 278z" />
    <glyph glyph-name="one" unicode="1" horiz-adv-x="376" 
d="M254 700h31v-700h-82v574l-129 -75v92z" />
    <glyph glyph-name="two" unicode="2" horiz-adv-x="570" 
d="M72 0v39l267 342c44 57 57 89 57 133c0 34 -9 60 -26 80c-18 21 -45 34 -84 34c-67 0 -108 -50 -115 -120l-84 16c7 103 90 184 199 184c69 0 119 -24 152 -61c30 -34 44 -78 44 -133c0 -59 -20 -105 -56 -152l-218 -282h287v-80h-423z" />
    <glyph glyph-name="three" unicode="3" horiz-adv-x="578" 
d="M61 192l84 11c12 -83 58 -131 139 -131s140 52 140 148s-59 148 -140 148c-21 0 -41 -3 -62 -13l-35 47l160 218h-253v80h380v-27l-178 -241c6 2 21 3 28 3c107 0 186 -86 186 -215c0 -134 -93 -228 -226 -228c-116 0 -211 78 -223 200z" />
    <glyph glyph-name="four" unicode="4" horiz-adv-x="596" 
d="M368 0v149h-304v35l296 516h94v-471h87v-80h-87v-149h-86zM178 229h190v339z" />
    <glyph glyph-name="five" unicode="5" horiz-adv-x="579" 
d="M78 183l85 16c10 -84 57 -127 127 -127c85 0 134 63 134 156s-48 156 -134 156c-59 0 -107 -33 -141 -78l-53 12l38 382h334v-80h-261l-26 -203c26 27 71 47 115 47c135 0 214 -98 214 -236s-85 -236 -220 -236c-112 0 -198 63 -212 191z" />
    <glyph glyph-name="six" unicode="6" horiz-adv-x="577" 
d="M297 448c130 0 221 -100 221 -228s-91 -228 -221 -228s-221 100 -221 228c0 48 13 90 36 129l207 359h96l-152 -267c11 5 25 7 34 7zM297 368c-77 0 -133 -57 -133 -148c0 -86 56 -148 133 -148s133 62 133 148c0 91 -56 148 -133 148z" />
    <glyph glyph-name="seven" unicode="7" horiz-adv-x="482" 
d="M182 0h-88l257 620h-296v80h399v-37z" />
    <glyph glyph-name="eight" unicode="8" horiz-adv-x="584" 
d="M292 708c113 0 192 -83 192 -187c0 -59 -32 -119 -79 -144c61 -28 104 -89 104 -176c0 -132 -101 -209 -217 -209s-217 77 -217 209c0 87 43 148 104 176c-47 25 -79 85 -79 144c0 104 79 187 192 187zM292 330c-74 0 -129 -49 -129 -129s55 -129 129 -129
s129 49 129 129s-55 129 -129 129zM292 632c-66 0 -108 -47 -108 -111s42 -111 108 -111s108 47 108 111s-42 111 -108 111z" />
    <glyph glyph-name="nine" unicode="9" horiz-adv-x="577" 
d="M297 252c-130 0 -221 100 -221 228s91 228 221 228s221 -100 221 -228c0 -48 -13 -90 -36 -129l-207 -359h-96l152 267c-11 -5 -25 -7 -34 -7zM297 332c77 0 133 57 133 148c0 86 -56 148 -133 148s-133 -62 -133 -148c0 -91 56 -148 133 -148z" />
    <glyph glyph-name="colon" unicode=":" horiz-adv-x="306" 
d="M90 59c0 35 27 63 63 63c35 0 63 -28 63 -63c0 -36 -28 -63 -63 -63c-36 0 -63 27 -63 63zM90 403c0 35 27 63 63 63c35 0 63 -28 63 -63c0 -36 -28 -63 -63 -63c-36 0 -63 27 -63 63z" />
    <glyph glyph-name="semicolon" unicode=";" horiz-adv-x="306" 
d="M88 403c0 35 27 63 63 63c35 0 63 -28 63 -63c0 -36 -28 -63 -63 -63c-36 0 -63 27 -63 63zM36 -107l66 217h114l-116 -217h-64z" />
    <glyph glyph-name="less" unicode="&#x3c;" horiz-adv-x="455" 
d="M50 266v88l349 185v-86l-267 -143l267 -143v-86z" />
    <glyph glyph-name="equal" unicode="=" horiz-adv-x="599" 
d="M100 356v74h399v-74h-399zM100 190v74h399v-74h-399z" />
    <glyph glyph-name="greater" unicode="&#x3e;" horiz-adv-x="455" 
d="M405 354v-88l-349 -185v86l267 143l-267 143v86z" />
    <glyph glyph-name="question" unicode="?" horiz-adv-x="448" 
d="M163 63c0 38 29 68 66 68c38 0 68 -30 68 -68c0 -37 -30 -66 -68 -66c-37 0 -66 29 -66 66zM363 307c-23 -68 -71 -106 -134 -106c-80 0 -132 48 -132 125c0 59 33 99 85 126c42 22 60 24 92 41c35 19 44 42 44 71c0 23 -8 40 -22 52c-16 14 -34 22 -65 22
c-53 0 -90 -39 -105 -93l-78 13c19 90 82 150 183 150c53 0 95 -17 124 -44c31 -29 45 -65 45 -105c0 -51 -25 -94 -76 -119l-101 -49c-36 -20 -49 -42 -49 -69c0 -32 20 -51 52 -51c38 0 59 28 72 59z" />
    <glyph glyph-name="at" unicode="@" horiz-adv-x="920" 
d="M589 509h66l-23 -252c-1 -10 -2 -19 -2 -23c0 -34 16 -52 47 -52c63 0 87 69 87 170c0 199 -101 294 -288 294c-158 0 -311 -117 -311 -348c0 -209 153 -320 310 -320c77 0 142 7 244 61l28 -67c-104 -48 -159 -66 -272 -66c-224 0 -394 153 -394 395
c0 264 190 417 400 417c223 0 367 -130 367 -366c0 -168 -77 -244 -175 -244c-55 0 -95 33 -112 69c-29 -44 -73 -69 -131 -69c-113 0 -172 82 -172 187c0 119 80 221 210 221c54 0 90 -21 111 -57zM461 442c-79 0 -121 -64 -121 -150c0 -69 33 -110 97 -110
c80 0 122 70 122 150c0 75 -37 110 -98 110z" />
    <glyph glyph-name="A" unicode="A" horiz-adv-x="592" 
d="M254 700h84l242 -700h-88l-62 187h-268l-62 -187h-88zM296 586l-106 -315h212z" />
    <glyph glyph-name="B" unicode="B" horiz-adv-x="618" 
d="M97 700h236c121 0 197 -65 197 -180c0 -62 -35 -113 -79 -137c67 -27 113 -88 113 -175c0 -130 -82 -208 -218 -208h-249v700zM185 331v-247h148c93 0 140 38 140 124c0 85 -47 123 -140 123h-148zM328 616h-143v-201h143c65 0 111 32 111 100s-46 101 -111 101z" />
    <glyph glyph-name="C" unicode="C" horiz-adv-x="688" 
d="M560 229l85 -25c-31 -123 -128 -212 -274 -212c-163 0 -316 119 -316 358s153 358 316 358c146 0 243 -89 274 -212l-85 -25c-32 98 -97 153 -189 153c-129 0 -225 -93 -225 -274s96 -274 225 -274c92 0 157 55 189 153z" />
    <glyph glyph-name="D" unicode="D" horiz-adv-x="666" 
d="M97 700h192c172 0 322 -123 322 -350s-150 -350 -322 -350h-192v700zM274 616h-89v-532h89c129 0 243 70 243 266s-114 266 -243 266z" />
    <glyph glyph-name="E" unicode="E" horiz-adv-x="566" 
d="M97 700h402v-84h-314v-201h254v-84h-254v-247h324v-84h-412v700z" />
    <glyph glyph-name="F" unicode="F" horiz-adv-x="538" 
d="M97 700h407v-84h-319v-209h259v-84h-259v-323h-88v700z" />
    <glyph glyph-name="G" unicode="G" horiz-adv-x="714" 
d="M413 269v84h235v-353h-75l-9 96c-33 -58 -102 -104 -197 -104c-159 0 -312 115 -312 358s153 358 316 358c147 0 244 -85 275 -212l-85 -25c-32 98 -97 153 -190 153c-129 0 -225 -93 -225 -274s96 -274 225 -274c121 0 185 81 193 193h-151z" />
    <glyph glyph-name="H" unicode="H" horiz-adv-x="690" 
d="M505 700h88v-700h-88v330h-320v-330h-88v700h88v-286h320v286z" />
    <glyph glyph-name="I" unicode="I" horiz-adv-x="282" 
d="M97 700h88v-700h-88v700z" />
    <glyph glyph-name="J" unicode="J" horiz-adv-x="509" 
d="M339 219v481h88v-485c0 -144 -89 -223 -204 -223c-129 0 -195 87 -212 183l89 19c15 -72 56 -118 123 -118c69 0 116 41 116 143z" />
    <glyph glyph-name="K" unicode="K" horiz-adv-x="597" 
d="M582 0h-112l-285 353v-353h-88v700h88v-281l261 281h112l-284 -314z" />
    <glyph glyph-name="L" unicode="L" horiz-adv-x="521" 
d="M97 700h88v-616h318v-84h-406v700z" />
    <glyph glyph-name="M" unicode="M" horiz-adv-x="784" 
d="M97 700h108l187 -493l187 493h108v-700h-88v510l-176 -446h-62l-176 446v-510h-88v700z" />
    <glyph glyph-name="N" unicode="N" horiz-adv-x="701" 
d="M516 700h88v-700h-103l-316 545v-545h-88v700h103l316 -547v547z" />
    <glyph glyph-name="O" unicode="O" horiz-adv-x="738" 
d="M369 708c167 0 314 -125 314 -358s-147 -358 -314 -358s-314 125 -314 358s147 358 314 358zM369 624c-124 0 -223 -91 -223 -274s99 -274 223 -274s223 91 223 274s-99 274 -223 274z" />
    <glyph glyph-name="P" unicode="P" horiz-adv-x="584" 
d="M341 300h-156v-300h-88v700h244c131 0 208 -78 208 -200s-77 -200 -208 -200zM346 384c72 0 112 42 112 116s-40 116 -112 116h-161v-232h161z" />
    <glyph glyph-name="Q" unicode="Q" horiz-adv-x="738" 
d="M369 708c167 0 314 -125 314 -358c0 -93 -24 -169 -63 -227l68 -67l-64 -64l-65 65c-54 -43 -120 -65 -190 -65c-167 0 -314 125 -314 358s147 358 314 358zM416 200l64 64l76 -77c23 42 36 97 36 163c0 183 -99 274 -223 274s-223 -91 -223 -274s99 -274 223 -274
c48 0 93 13 129 41z" />
    <glyph glyph-name="R" unicode="R" horiz-adv-x="641" 
d="M495 0l-205 330h-105v-330h-88v700h233c124 0 206 -67 206 -185c0 -97 -55 -160 -146 -179l209 -336h-104zM332 616h-147v-202h147c73 0 113 31 113 101s-40 101 -113 101z" />
    <glyph glyph-name="S" unicode="S" horiz-adv-x="523" 
d="M440 596l-71 -46c-34 61 -69 74 -111 74c-50 0 -84 -42 -84 -87c0 -69 61 -98 135 -135c79 -40 167 -88 167 -201c0 -57 -20 -106 -54 -143c-38 -42 -94 -66 -156 -66c-116 0 -203 80 -226 189l76 46c23 -83 60 -151 150 -151c36 0 73 14 95 40c17 21 27 51 27 83
c0 68 -64 104 -132 136c-91 43 -170 87 -170 195c0 104 80 178 172 178c99 0 148 -46 182 -112z" />
    <glyph glyph-name="T" unicode="T" horiz-adv-x="522" 
d="M15 616v84h492v-84h-202v-616h-88v616h-202z" />
    <glyph glyph-name="U" unicode="U" horiz-adv-x="654" 
d="M82 238v462h88v-468c0 -89 55 -156 157 -156s157 67 157 156v468h88v-462c0 -160 -110 -246 -245 -246s-245 86 -245 246z" />
    <glyph glyph-name="V" unicode="V" horiz-adv-x="586" 
d="M485 700h93l-241 -700h-88l-241 700h93l192 -575z" />
    <glyph glyph-name="W" unicode="W" horiz-adv-x="904" 
d="M783 700h93l-187 -700h-92l-145 481l-145 -481h-92l-187 700h93l142 -570l149 496h80l149 -496z" />
    <glyph glyph-name="X" unicode="X" horiz-adv-x="576" 
d="M48 700h101l139 -238l139 238h101l-190 -324l221 -376h-101l-170 290l-170 -290h-101l221 376z" />
    <glyph glyph-name="Y" unicode="Y" horiz-adv-x="506" 
d="M209 302l-205 398h97l152 -310l152 310h97l-205 -398v-302h-88v302z" />
    <glyph glyph-name="Z" unicode="Z" horiz-adv-x="555" 
d="M57 616v84h439v-42l-326 -574h336v-84h-461v42l326 574h-314z" />
    <glyph glyph-name="bracketleft" unicode="[" horiz-adv-x="323" 
d="M97 -50v800h188v-76h-108v-648h108v-76h-188z" />
    <glyph glyph-name="backslash" unicode="\" horiz-adv-x="543" 
d="M4 750h84l436 -800h-84z" />
    <glyph glyph-name="bracketright" unicode="]" horiz-adv-x="323" 
d="M38 750h188v-800h-188v76h108v648h-108v76z" />
    <glyph glyph-name="asciicircum" unicode="^" horiz-adv-x="556" 
d="M244 700h68l186 -279h-83l-137 203l-137 -203h-83z" />
    <glyph glyph-name="underscore" unicode="_" horiz-adv-x="459" 
d="M30 -74v74h399v-74h-399z" />
    <glyph glyph-name="grave" unicode="`" horiz-adv-x="228" 
d="M140 704l68 -144h-68l-121 144h121z" />
    <glyph glyph-name="a" unicode="a" horiz-adv-x="518" 
d="M142 145c0 -48 30 -77 83 -77c65 0 141 40 141 154v12h-90c-86 0 -134 -32 -134 -89zM450 322v-322h-66l-14 71c-32 -46 -83 -79 -158 -79c-84 0 -156 45 -156 153s90 165 228 165h82v22c0 78 -49 104 -110 104c-52 0 -94 -29 -105 -79l-74 17c14 85 84 138 179 138
c111 0 194 -56 194 -190z" />
    <glyph glyph-name="b" unicode="b" horiz-adv-x="601" 
d="M547 252c0 -151 -76 -260 -224 -260c-61 0 -123 33 -147 70v-62h-84v708h84v-264c17 29 83 68 147 68c148 0 224 -109 224 -260zM461 252c0 108 -57 184 -146 184c-92 0 -146 -76 -146 -184s54 -184 146 -184c89 0 146 76 146 184z" />
    <glyph glyph-name="c" unicode="c" horiz-adv-x="538" 
d="M421 161l73 -30c-41 -94 -107 -139 -211 -139c-154 0 -229 125 -229 260s75 260 229 260c104 0 170 -45 211 -139l-73 -30c-26 61 -69 93 -138 93c-98 0 -143 -83 -143 -184s45 -184 143 -184c69 0 112 32 138 93z" />
    <glyph glyph-name="d" unicode="d" horiz-adv-x="601" 
d="M54 252c0 151 76 260 224 260c64 0 130 -39 147 -68v264h84v-708h-84v62c-24 -37 -86 -70 -147 -70c-148 0 -224 109 -224 260zM140 252c0 -108 57 -184 146 -184c92 0 146 76 146 184s-54 184 -146 184c-89 0 -146 -76 -146 -184z" />
    <glyph glyph-name="e" unicode="e" 
d="M510 273v-39h-370c5 -93 51 -166 142 -166c74 0 112 34 140 96l74 -32c-47 -98 -110 -140 -214 -140c-153 0 -228 125 -228 260s75 260 228 260c149 0 228 -114 228 -239zM282 436c-78 0 -122 -53 -137 -126h277c-15 72 -59 126 -140 126z" />
    <glyph glyph-name="f" unicode="f" horiz-adv-x="364" 
d="M47 428v76h72v33c0 116 61 171 163 171c28 0 56 -7 72 -16l-17 -74c-18 9 -38 14 -56 14c-55 0 -78 -30 -78 -95v-33h116v-76h-116v-428h-84v428h-72z" />
    <glyph glyph-name="g" unicode="g" horiz-adv-x="507" 
d="M90 342c0 104 77 169 176 169c33 0 64 -8 91 -22l90 51l38 -69l-68 -38c16 -25 25 -56 25 -91c0 -105 -77 -168 -176 -168c-32 0 -62 6 -87 18c-23 -11 -33 -27 -33 -49c0 -27 20 -42 57 -42h119c94 0 158 -47 158 -139c0 -124 -98 -174 -213 -174
c-128 0 -214 61 -214 166c0 46 20 82 47 105c-21 18 -34 44 -34 80c0 43 24 74 61 93c-23 28 -37 65 -37 110zM309 29h-102c-13 0 -26 1 -37 2c-24 -19 -33 -44 -33 -74c0 -56 44 -95 130 -95c88 0 127 40 127 92c0 56 -36 75 -85 75zM172 342c0 -63 43 -96 94 -96
s94 33 94 96s-43 97 -94 97s-94 -34 -94 -97z" />
    <glyph glyph-name="h" unicode="h" horiz-adv-x="585" 
d="M499 350v-350h-84v333c0 69 -31 103 -87 103c-74 0 -152 -83 -152 -222v-214h-84v708h84v-298c32 61 97 102 175 102c92 0 148 -55 148 -162z" />
    <glyph glyph-name="i" unicode="i" horiz-adv-x="270" 
d="M93 504h84v-504h-84v504zM72 644c0 36 27 64 63 64s63 -28 63 -64c0 -35 -27 -62 -63 -62s-63 27 -63 62z" />
    <glyph glyph-name="j" unicode="j" horiz-adv-x="270" 
d="M25 -212l-22 80c58 16 92 38 92 114v522h84v-530c0 -104 -57 -167 -154 -186zM72 644c0 36 27 64 63 64s63 -28 63 -64c0 -35 -27 -62 -63 -62s-63 27 -63 62z" />
    <glyph glyph-name="k" unicode="k" horiz-adv-x="511" 
d="M92 708h84v-415l196 211h108l-214 -231l230 -273h-107l-213 253v-253h-84v708z" />
    <glyph glyph-name="l" unicode="l" horiz-adv-x="258" 
d="M90 708h84v-708h-84v708z" />
    <glyph glyph-name="m" unicode="m" horiz-adv-x="862" 
d="M774 355v-355h-84v337c0 65 -28 99 -81 99c-73 0 -134 -82 -134 -229v-207h-84v337c0 65 -28 99 -81 99c-73 0 -134 -82 -134 -229v-207h-84v504h84v-93c32 63 87 101 157 101s119 -39 135 -105c35 66 93 105 164 105c92 0 142 -60 142 -157z" />
    <glyph glyph-name="n" unicode="n" horiz-adv-x="577" 
d="M491 355v-355h-84v333c0 69 -31 103 -87 103c-75 0 -144 -85 -144 -225v-211h-84v504h84v-93c37 65 97 101 167 101c92 0 148 -57 148 -157z" />
    <glyph glyph-name="o" unicode="o" horiz-adv-x="592" 
d="M54 252c0 137 91 260 242 260s242 -123 242 -260s-91 -260 -242 -260s-242 123 -242 260zM140 252c0 -93 53 -184 156 -184s156 91 156 184s-53 184 -156 184s-156 -91 -156 -184z" />
    <glyph glyph-name="p" unicode="p" horiz-adv-x="601" 
d="M547 252c0 -151 -76 -260 -224 -260c-64 0 -130 39 -147 68v-264h-84v708h84v-62c24 37 86 70 147 70c148 0 224 -109 224 -260zM461 252c0 108 -57 184 -146 184c-92 0 -146 -76 -146 -184s54 -184 146 -184c89 0 146 76 146 184z" />
    <glyph glyph-name="q" unicode="q" horiz-adv-x="601" 
d="M54 252c0 151 76 260 224 260c61 0 123 -33 147 -70v62h84v-708h-84v264c-17 -29 -83 -68 -147 -68c-148 0 -224 109 -224 260zM140 252c0 -108 57 -184 146 -184c92 0 146 76 146 184s-54 184 -146 184c-89 0 -146 -76 -146 -184z" />
    <glyph glyph-name="r" unicode="r" horiz-adv-x="413" 
d="M393 497l-17 -75c-18 9 -38 14 -59 14c-69 0 -141 -81 -141 -245v-191h-84v504h84v-86c30 56 92 94 148 94c28 0 54 -7 69 -15z" />
    <glyph glyph-name="s" unicode="s" horiz-adv-x="461" 
d="M236 512c62 0 111 -27 146 -77l-57 -49c-33 36 -57 50 -92 50c-34 0 -61 -23 -61 -64c0 -91 234 -72 234 -220c0 -101 -65 -160 -167 -160c-103 0 -162 68 -188 136l71 39c22 -54 61 -99 117 -99c51 0 81 26 81 79c0 94 -232 62 -232 226c0 78 57 139 148 139z" />
    <glyph glyph-name="t" unicode="t" horiz-adv-x="378" 
d="M25 428v76h87v151l84 53v-204h132v-76h-132v-277c0 -54 25 -83 67 -83c22 0 39 4 57 16l20 -73c-24 -14 -53 -19 -82 -19c-85 0 -146 52 -146 166v270h-87z" />
    <glyph glyph-name="u" unicode="u" horiz-adv-x="577" 
d="M86 149v355h84v-333c0 -69 31 -103 87 -103c75 0 144 85 144 225v211h84v-504h-84v93c-37 -65 -97 -101 -167 -101c-92 0 -148 57 -148 157z" />
    <glyph glyph-name="v" unicode="v" horiz-adv-x="456" 
d="M351 504h86l-166 -504h-86l-166 504h86l123 -397z" />
    <glyph glyph-name="w" unicode="w" horiz-adv-x="738" 
d="M613 504h88l-153 -504h-80l-99 383l-99 -383h-80l-153 504h88l103 -387l99 387h84l99 -387z" />
    <glyph glyph-name="x" unicode="x" horiz-adv-x="458" 
d="M36 504h95l98 -160l98 160h95l-146 -238l164 -266h-95l-116 189l-116 -189h-95l164 266z" />
    <glyph glyph-name="y" unicode="y" horiz-adv-x="460" 
d="M360 504h88l-250 -708h-86l80 225l-177 483h92l128 -364z" />
    <glyph glyph-name="z" unicode="z" horiz-adv-x="456" 
d="M63 428v76h338v-36l-239 -392h248v-76h-360v36l238 392h-225z" />
    <glyph glyph-name="braceleft" unicode="{" horiz-adv-x="318" 
d="M142 50v182c0 60 -20 80 -80 80v76c60 0 80 20 80 80v182c0 60 40 100 100 100h48v-76h-23c-32 0 -45 -13 -45 -45v-181c0 -68 -32 -88 -72 -98c40 -10 72 -30 72 -98v-181c0 -32 13 -45 45 -45h23v-76h-48c-60 0 -100 40 -100 100z" />
    <glyph glyph-name="bar" unicode="|" horiz-adv-x="274" 
d="M97 750h80v-800h-80v800z" />
    <glyph glyph-name="braceright" unicode="}" horiz-adv-x="318" 
d="M176 232v-182c0 -60 -40 -100 -100 -100h-48v76h23c32 0 45 13 45 45v181c0 68 32 88 72 98c-40 10 -72 30 -72 98v181c0 32 -13 45 -45 45h-23v76h48c60 0 100 -40 100 -100v-182c0 -60 20 -80 80 -80v-76c-60 0 -80 -20 -80 -80z" />
    <glyph glyph-name="asciitilde" unicode="~" horiz-adv-x="628" 
d="M129 268l-49 50c29 53 77 89 132 89c85 0 122 -50 194 -50c35 0 70 17 93 45l49 -51c-29 -54 -77 -88 -132 -88c-85 0 -121 50 -194 50c-35 0 -70 -17 -93 -45z" />
    <glyph glyph-name="exclamdown" unicode="&#xa1;" horiz-adv-x="345" 
d="M227 -206h-114l24 500h66zM100 429c0 38 30 68 70 68s70 -30 70 -68c0 -40 -30 -71 -70 -71s-70 31 -70 71z" />
    <glyph glyph-name="cent" unicode="&#xa2;" 
d="M427 259l73 -30c-36 -82 -90 -126 -171 -137v-142h-80v143c-127 19 -189 134 -189 257s62 238 189 257v143h80v-142c81 -11 135 -55 171 -137l-73 -30c-26 61 -69 92 -138 92c-98 0 -143 -82 -143 -183s45 -183 143 -183c69 0 112 31 138 92z" />
    <glyph glyph-name="sterling" unicode="&#xa3;" horiz-adv-x="543" 
d="M65 324v80h53c-10 30 -18 63 -18 103c0 125 78 201 193 201c93 0 164 -50 196 -138l-75 -35c-30 67 -65 93 -121 93c-60 0 -109 -38 -109 -122c0 -45 7 -75 16 -102h164v-80h-138c4 -18 7 -38 7 -63c0 -77 -37 -136 -79 -177c27 18 63 27 87 27c57 0 81 -39 123 -39
c35 0 58 15 90 68l66 -36c-42 -78 -88 -112 -151 -112c-77 0 -102 40 -154 40c-44 0 -75 -12 -113 -40l-57 62c76 73 111 128 111 197c0 26 -4 50 -10 73h-81z" />
    <glyph glyph-name="currency" unicode="&#xa4;" horiz-adv-x="554" 
d="M114 422l-88 67l69 69l67 -87c32 24 71 38 115 38s83 -14 115 -38l67 87l69 -69l-88 -67c22 -32 35 -72 35 -115s-13 -83 -35 -115l88 -67l-69 -69l-67 87c-32 -24 -71 -38 -115 -38s-83 14 -115 38l-67 -87l-69 69l88 67c-22 32 -35 72 -35 115s13 83 35 115zM159 307
c0 -74 47 -126 118 -126s118 52 118 126s-47 126 -118 126s-118 -52 -118 -126z" />
    <glyph glyph-name="yen" unicode="&#xa5;" horiz-adv-x="504" 
d="M11 700h97l144 -302l144 302h97l-157 -313h116v-80h-156v-80h156v-80h-156v-147h-88v147h-156v80h156v80h-156v80h116z" />
    <glyph glyph-name="brokenbar" unicode="&#xa6;" horiz-adv-x="274" 
d="M97 299h80v-349h-80v349zM177 401h-80v349h80v-349z" />
    <glyph glyph-name="section" unicode="&#xa7;" horiz-adv-x="540" 
d="M66 274c0 70 29 105 73 137c-25 28 -41 62 -41 111c0 118 85 186 173 186c100 0 163 -52 187 -148l-77 -25c-18 61 -51 93 -110 93c-47 0 -89 -38 -89 -102c0 -91 86 -105 193 -162c62 -33 101 -77 101 -142c0 -70 -29 -105 -73 -137c25 -28 41 -62 41 -111
c0 -118 -85 -186 -173 -186c-100 0 -163 52 -187 148l77 25c18 -61 51 -93 110 -93c47 0 89 38 89 102c0 91 -86 105 -193 162c-62 33 -101 77 -101 142zM143 283c0 -81 112 -100 200 -151c28 15 56 41 56 81c0 81 -112 100 -200 151c-28 -15 -56 -41 -56 -81z" />
    <glyph glyph-name="dieresis" unicode="&#xa8;" horiz-adv-x="319" 
d="M20 651c0 32 25 57 56 57c33 0 57 -25 57 -57s-24 -56 -57 -56c-31 0 -56 24 -56 56zM186 651c0 32 25 57 56 57c33 0 57 -25 57 -57s-24 -56 -57 -56c-31 0 -56 24 -56 56z" />
    <glyph glyph-name="copyright" unicode="&#xa9;" horiz-adv-x="900" 
d="M70 350c0 222 162 390 380 390s380 -168 380 -390s-162 -390 -380 -390s-380 168 -380 390zM150 350c0 -176 119 -314 300 -314s300 138 300 314s-119 314 -300 314s-300 -138 -300 -314zM553 282l70 -17c-16 -83 -88 -131 -173 -131c-93 0 -196 65 -196 216
s103 216 196 216c85 0 157 -48 173 -131l-70 -17c-17 54 -51 78 -103 78c-66 0 -120 -42 -120 -146s54 -146 120 -146c52 0 86 24 103 78z" />
    <glyph glyph-name="ordfeminine" unicode="&#xaa;" horiz-adv-x="437" 
d="M129 416c0 -38 24 -60 66 -60c51 0 111 31 111 120v13h-71c-68 0 -106 -29 -106 -73zM372 555v-255h-54l-9 58c-25 -36 -66 -62 -125 -62c-66 0 -121 35 -121 120s69 129 178 129h65v17c0 62 -39 82 -87 82c-41 0 -74 -23 -83 -62l-58 13c13 62 68 109 146 109
c89 0 148 -48 148 -149z" />
    <glyph glyph-name="guillemotleft" unicode="&#xab;" horiz-adv-x="611" 
d="M278 279v62l277 199v-90l-195 -140l195 -140v-90zM48 279v62l277 199v-90l-195 -140l195 -140v-90z" />
    <glyph glyph-name="logicalnot" unicode="&#xac;" horiz-adv-x="581" 
d="M69 313v76h433v-247h-84v171h-349z" />
    <glyph glyph-name="registered" unicode="&#xae;" horiz-adv-x="900" 
d="M70 350c0 222 162 390 380 390s380 -168 380 -390s-162 -390 -380 -390s-380 168 -380 390zM150 350c0 -176 119 -314 300 -314s300 138 300 314s-119 314 -300 314s-300 -138 -300 -314zM546 137l-126 182h-38v-182h-72v426h153c88 0 132 -50 132 -122
c0 -62 -40 -107 -94 -118l127 -186h-82zM462 493h-80v-104h80c44 0 61 19 61 52s-17 52 -61 52z" />
    <glyph glyph-name="macron" unicode="&#xaf;" horiz-adv-x="273" 
d="M12 632v76h249v-76h-249z" />
    <glyph glyph-name="degree" unicode="&#xb0;" horiz-adv-x="356" 
d="M66 593c0 64 47 111 112 111s112 -47 112 -111s-47 -111 -112 -111s-112 47 -112 111zM130 593c0 -29 18 -49 48 -49s48 20 48 49s-18 49 -48 49s-48 -20 -48 -49z" />
    <glyph glyph-name="plusminus" unicode="&#xb1;" horiz-adv-x="568" 
d="M248 619h74v-183h183v-74h-183v-183h-74v183h-183v74h183v183zM65 0v74h440v-74h-440z" />
    <glyph glyph-name="twosuperior" unicode="&#xb2;" horiz-adv-x="382" 
d="M131 575l-64 17c7 64 56 112 123 112c75 0 120 -44 120 -116c0 -37 -13 -72 -38 -103l-103 -125h151v-60h-258v25l149 184c22 27 33 52 33 77c0 37 -19 58 -54 58c-31 0 -55 -25 -59 -69z" />
    <glyph glyph-name="threesuperior" unicode="&#xb3;" horiz-adv-x="389" 
d="M62 415l64 9c5 -42 31 -68 69 -68c46 0 66 34 66 75c0 44 -23 71 -66 71c-15 0 -30 -6 -37 -11l-31 41l82 108h-128v60h223v-23l-94 -126c70 0 117 -49 117 -120c0 -78 -53 -135 -132 -135c-74 0 -127 47 -133 119z" />
    <glyph glyph-name="acute" unicode="&#xb4;" horiz-adv-x="228" 
d="M20 560l68 144h121l-121 -144h-68z" />
    <glyph glyph-name="mu" unicode="&#xb5;" horiz-adv-x="577" 
d="M170 -204h-84v708h84v-333c0 -69 31 -103 87 -103c75 0 144 85 144 225v211h84v-504h-84v93c-37 -65 -97 -101 -167 -101c-24 0 -46 4 -64 11v-207z" />
    <glyph glyph-name="mu" unicode="&#x3bc;" horiz-adv-x="577" 
d="M170 -204h-84v708h84v-333c0 -69 31 -103 87 -103c75 0 144 85 144 225v211h84v-504h-84v93c-37 -65 -97 -101 -167 -101c-24 0 -46 4 -64 11v-207z" />
    <glyph glyph-name="paragraph" unicode="&#xb6;" horiz-adv-x="685" 
d="M60 507c0 107 86 193 193 193h366v-76h-62v-828h-84v828h-136v-828h-84v518c-107 0 -193 86 -193 193z" />
    <glyph glyph-name="periodcentered" unicode="&#xb7;" horiz-adv-x="306" 
d="M90 349c0 35 27 63 63 63c35 0 63 -28 63 -63c0 -36 -28 -63 -63 -63c-36 0 -63 27 -63 63z" />
    <glyph glyph-name="cedilla" unicode="&#xb8;" horiz-adv-x="198" 
d="M188 -60l-83 -175l-95 45l108 130h70z" />
    <glyph glyph-name="onesuperior" unicode="&#xb9;" horiz-adv-x="292" 
d="M184 700h22v-400h-63v309l-86 -40v70z" />
    <glyph glyph-name="ordmasculine" unicode="&#xba;" horiz-adv-x="516" 
d="M69 500c0 107 70 204 189 204c118 0 189 -97 189 -204c0 -108 -71 -204 -189 -204c-119 0 -189 96 -189 204zM135 500c0 -73 42 -145 123 -145s122 72 122 145s-41 144 -122 144s-123 -71 -123 -144z" />
    <glyph glyph-name="guillemotright" unicode="&#xbb;" horiz-adv-x="611" 
d="M333 341v-62l-277 -199v90l195 140l-195 140v90zM563 341v-62l-277 -199v90l195 140l-195 140v90z" />
    <glyph glyph-name="onequarter" unicode="&#xbc;" horiz-adv-x="794" 
d="M205 700h22v-400h-63v309l-86 -40v70zM642 729l50 -39l-538 -719l-50 40zM598 0v77h-170v26l161 297h72v-263h47v-60h-47v-77h-63zM510 137h88v170z" />
    <glyph glyph-name="onehalf" unicode="&#xbd;" horiz-adv-x="859" 
d="M205 700h22v-400h-63v309l-86 -40v70zM568 275l-64 17c7 64 56 112 123 112c75 0 120 -44 120 -116c0 -37 -13 -72 -38 -103l-103 -125h151v-60h-258v25l149 184c22 27 33 52 33 77c0 37 -19 58 -54 58c-31 0 -55 -25 -59 -69zM642 729l50 -39l-538 -719l-50 40z" />
    <glyph glyph-name="threequarters" unicode="&#xbe;" horiz-adv-x="855" 
d="M706 729l50 -39l-538 -719l-50 40zM62 415l64 9c5 -42 31 -68 69 -68c46 0 66 34 66 75c0 44 -23 71 -66 71c-15 0 -30 -6 -37 -11l-31 41l82 108h-128v60h223v-23l-94 -126c70 0 117 -49 117 -120c0 -78 -53 -135 -132 -135c-74 0 -127 47 -133 119zM659 0v77h-170v26
l161 297h72v-263h47v-60h-47v-77h-63zM571 137h88v170z" />
    <glyph glyph-name="questiondown" unicode="&#xbf;" horiz-adv-x="448" 
d="M285 431c0 -38 -29 -68 -66 -68c-38 0 -68 30 -68 68c0 37 30 66 68 66c37 0 66 -29 66 -66zM85 187c23 68 71 106 134 106c80 0 132 -48 132 -125c0 -59 -33 -99 -85 -126c-42 -22 -60 -24 -92 -41c-35 -19 -44 -42 -44 -71c0 -23 8 -40 22 -52c16 -14 34 -22 65 -22
c53 0 90 39 105 93l78 -13c-19 -90 -82 -150 -183 -150c-53 0 -95 17 -124 44c-31 29 -45 65 -45 105c0 51 25 94 76 119l101 49c36 20 49 42 49 69c0 32 -20 51 -52 51c-38 0 -59 -28 -72 -59z" />
    <glyph glyph-name="Agrave" unicode="&#xc0;" horiz-adv-x="592" 
d="M254 700h84l242 -700h-88l-62 187h-268l-62 -187h-88zM296 586l-106 -315h212zM279 900l68 -144h-68l-121 144h121z" />
    <glyph glyph-name="Aacute" unicode="&#xc1;" horiz-adv-x="592" 
d="M254 700h84l242 -700h-88l-62 187h-268l-62 -187h-88zM296 586l-106 -315h212zM235 756l68 144h121l-121 -144h-68z" />
    <glyph glyph-name="Acircumflex" unicode="&#xc2;" horiz-adv-x="592" 
d="M254 700h84l242 -700h-88l-62 187h-268l-62 -187h-88zM296 586l-106 -315h212zM133 762l153 164h26l153 -164h-86l-80 85l-80 -85h-86z" />
    <glyph glyph-name="Atilde" unicode="&#xc3;" horiz-adv-x="592" 
d="M254 700h84l242 -700h-88l-62 187h-268l-62 -187h-88zM296 586l-106 -315h212zM169 782l-49 38c23 43 63 76 107 76c68 0 81 -40 131 -40c28 0 48 14 66 36l49 -39c-23 -43 -63 -75 -107 -75c-68 0 -81 40 -131 40c-28 0 -48 -14 -66 -36z" />
    <glyph glyph-name="Adieresis" unicode="&#xc4;" horiz-adv-x="592" 
d="M254 700h84l242 -700h-88l-62 187h-268l-62 -187h-88zM296 586l-106 -315h212zM157 847c0 32 25 57 56 57c33 0 57 -25 57 -57s-24 -56 -57 -56c-31 0 -56 24 -56 56zM323 847c0 32 25 57 56 57c33 0 57 -25 57 -57s-24 -56 -57 -56c-31 0 -56 24 -56 56z" />
    <glyph glyph-name="Aring" unicode="&#xc5;" horiz-adv-x="592" 
d="M254 700h84l242 -700h-88l-62 187h-268l-62 -187h-88zM296 586l-106 -315h212zM197 849c0 56 43 100 99 100c58 0 99 -44 99 -100c0 -54 -41 -96 -99 -96c-56 0 -99 42 -99 96zM253 850c0 -25 18 -44 43 -44c26 0 43 19 43 44c0 26 -17 46 -43 46c-25 0 -43 -20 -43 -46z
" />
    <glyph glyph-name="AE" unicode="&#xc6;" horiz-adv-x="830" 
d="M315 700h448v-84h-314v-201h254v-84h-254v-247h324v-84h-412v187h-181l-80 -187h-90zM351 585l-135 -314h145v314h-10z" />
    <glyph glyph-name="Ccedilla" unicode="&#xc7;" horiz-adv-x="688" 
d="M560 229l85 -25c-31 -123 -128 -212 -274 -212c-163 0 -316 119 -316 358s153 358 316 358c146 0 243 -89 274 -212l-85 -25c-32 98 -97 153 -189 153c-129 0 -225 -93 -225 -274s96 -274 225 -274c92 0 157 55 189 153zM432 -60l-83 -175l-95 45l108 130h70z" />
    <glyph glyph-name="Egrave" unicode="&#xc8;" horiz-adv-x="566" 
d="M97 700h402v-84h-314v-201h254v-84h-254v-247h324v-84h-412v700zM307 900l68 -144h-68l-121 144h121z" />
    <glyph glyph-name="Eacute" unicode="&#xc9;" horiz-adv-x="566" 
d="M97 700h402v-84h-314v-201h254v-84h-254v-247h324v-84h-412v700zM229 756l68 144h121l-121 -144h-68z" />
    <glyph glyph-name="Ecircumflex" unicode="&#xca;" horiz-adv-x="566" 
d="M97 700h402v-84h-314v-201h254v-84h-254v-247h324v-84h-412v700zM150 762l153 164h26l153 -164h-86l-80 85l-80 -85h-86z" />
    <glyph glyph-name="Edieresis" unicode="&#xcb;" horiz-adv-x="566" 
d="M97 700h402v-84h-314v-201h254v-84h-254v-247h324v-84h-412v700zM164 847c0 32 25 57 56 57c33 0 57 -25 57 -57s-24 -56 -57 -56c-31 0 -56 24 -56 56zM330 847c0 32 25 57 56 57c33 0 57 -25 57 -57s-24 -56 -57 -56c-31 0 -56 24 -56 56z" />
    <glyph glyph-name="Igrave" unicode="&#xcc;" horiz-adv-x="282" 
d="M97 700h88v-700h-88v700zM137 900l68 -144h-68l-121 144h121z" />
    <glyph glyph-name="Iacute" unicode="&#xcd;" horiz-adv-x="282" 
d="M97 700h88v-700h-88v700zM76 756l68 144h121l-121 -144h-68z" />
    <glyph glyph-name="Icircumflex" unicode="&#xce;" horiz-adv-x="282" 
d="M97 700h88v-700h-88v700zM-22 762l153 164h26l153 -164h-86l-80 85l-80 -85h-86z" />
    <glyph glyph-name="Idieresis" unicode="&#xcf;" horiz-adv-x="282" 
d="M97 700h88v-700h-88v700zM2 847c0 32 25 57 56 57c33 0 57 -25 57 -57s-24 -56 -57 -56c-31 0 -56 24 -56 56zM168 847c0 32 25 57 56 57c33 0 57 -25 57 -57s-24 -56 -57 -56c-31 0 -56 24 -56 56z" />
    <glyph glyph-name="Eth" unicode="&#xd0;" horiz-adv-x="687" 
d="M35 308v84h83v308h192c172 0 322 -123 322 -350s-150 -350 -322 -350h-192v308h-83zM295 616h-89v-224h83v-84h-83v-224h89c129 0 243 70 243 266s-114 266 -243 266z" />
    <glyph glyph-name="Ntilde" unicode="&#xd1;" horiz-adv-x="701" 
d="M516 700h88v-700h-103l-316 545v-545h-88v700h103l316 -547v547zM228 782l-49 38c23 43 63 76 107 76c68 0 81 -40 131 -40c28 0 48 14 66 36l49 -39c-23 -43 -63 -75 -107 -75c-68 0 -81 40 -131 40c-28 0 -48 -14 -66 -36z" />
    <glyph glyph-name="Ograve" unicode="&#xd2;" horiz-adv-x="738" 
d="M369 708c167 0 314 -125 314 -358s-147 -358 -314 -358s-314 125 -314 358s147 358 314 358zM369 624c-124 0 -223 -91 -223 -274s99 -274 223 -274s223 91 223 274s-99 274 -223 274zM375 900l68 -144h-68l-121 144h121z" />
    <glyph glyph-name="Oacute" unicode="&#xd3;" horiz-adv-x="738" 
d="M369 708c167 0 314 -125 314 -358s-147 -358 -314 -358s-314 125 -314 358s147 358 314 358zM369 624c-124 0 -223 -91 -223 -274s99 -274 223 -274s223 91 223 274s-99 274 -223 274zM294 756l68 144h121l-121 -144h-68z" />
    <glyph glyph-name="Ocircumflex" unicode="&#xd4;" horiz-adv-x="738" 
d="M369 708c167 0 314 -125 314 -358s-147 -358 -314 -358s-314 125 -314 358s147 358 314 358zM369 624c-124 0 -223 -91 -223 -274s99 -274 223 -274s223 91 223 274s-99 274 -223 274zM206 762l153 164h26l153 -164h-86l-80 85l-80 -85h-86z" />
    <glyph glyph-name="Otilde" unicode="&#xd5;" horiz-adv-x="738" 
d="M369 708c167 0 314 -125 314 -358s-147 -358 -314 -358s-314 125 -314 358s147 358 314 358zM369 624c-124 0 -223 -91 -223 -274s99 -274 223 -274s223 91 223 274s-99 274 -223 274zM242 782l-49 38c23 43 63 76 107 76c68 0 81 -40 131 -40c28 0 48 14 66 36l49 -39
c-23 -43 -63 -75 -107 -75c-68 0 -81 40 -131 40c-28 0 -48 -14 -66 -36z" />
    <glyph glyph-name="Odieresis" unicode="&#xd6;" horiz-adv-x="738" 
d="M369 708c167 0 314 -125 314 -358s-147 -358 -314 -358s-314 125 -314 358s147 358 314 358zM369 624c-124 0 -223 -91 -223 -274s99 -274 223 -274s223 91 223 274s-99 274 -223 274zM230 847c0 32 25 57 56 57c33 0 57 -25 57 -57s-24 -56 -57 -56c-31 0 -56 24 -56 56
zM396 847c0 32 25 57 56 57c33 0 57 -25 57 -57s-24 -56 -57 -56c-31 0 -56 24 -56 56z" />
    <glyph glyph-name="multiply" unicode="&#xd7;" horiz-adv-x="554" 
d="M435 529l52 -52l-158 -158l158 -158l-52 -52l-158 158l-158 -158l-52 52l158 158l-158 158l52 52l158 -158z" />
    <glyph glyph-name="Oslash" unicode="&#xd8;" horiz-adv-x="738" 
d="M369 708c67 0 131 -20 183 -60l61 79l59 -44l-67 -86c48 -60 78 -143 78 -247c0 -233 -147 -358 -314 -358c-67 0 -131 20 -183 60l-61 -79l-59 44l67 86c-48 60 -78 143 -78 247c0 233 147 358 314 358zM592 350c0 72 -16 131 -43 174l-311 -405c37 -29 82 -43 131 -43
c124 0 223 91 223 274zM369 624c-124 0 -223 -91 -223 -274c0 -73 16 -131 43 -174l311 405c-37 29 -82 43 -131 43z" />
    <glyph glyph-name="Ugrave" unicode="&#xd9;" horiz-adv-x="654" 
d="M82 238v462h88v-468c0 -89 55 -156 157 -156s157 67 157 156v468h88v-462c0 -160 -110 -246 -245 -246s-245 86 -245 246zM338 900l68 -144h-68l-121 144h121z" />
    <glyph glyph-name="Uacute" unicode="&#xda;" horiz-adv-x="654" 
d="M82 238v462h88v-468c0 -89 55 -156 157 -156s157 67 157 156v468h88v-462c0 -160 -110 -246 -245 -246s-245 86 -245 246zM247 756l68 144h121l-121 -144h-68z" />
    <glyph glyph-name="Ucircumflex" unicode="&#xdb;" horiz-adv-x="654" 
d="M82 238v462h88v-468c0 -89 55 -156 157 -156s157 67 157 156v468h88v-462c0 -160 -110 -246 -245 -246s-245 86 -245 246zM164 762l153 164h26l153 -164h-86l-80 85l-80 -85h-86z" />
    <glyph glyph-name="Udieresis" unicode="&#xdc;" horiz-adv-x="654" 
d="M82 238v462h88v-468c0 -89 55 -156 157 -156s157 67 157 156v468h88v-462c0 -160 -110 -246 -245 -246s-245 86 -245 246zM188 847c0 32 25 57 56 57c33 0 57 -25 57 -57s-24 -56 -57 -56c-31 0 -56 24 -56 56zM354 847c0 32 25 57 56 57c33 0 57 -25 57 -57
s-24 -56 -57 -56c-31 0 -56 24 -56 56z" />
    <glyph glyph-name="Yacute" unicode="&#xdd;" horiz-adv-x="506" 
d="M209 302l-205 398h97l152 -310l152 310h97l-205 -398v-302h-88v302zM199 756l68 144h121l-121 -144h-68z" />
    <glyph glyph-name="Thorn" unicode="&#xde;" horiz-adv-x="584" 
d="M341 150h-156v-150h-88v700h88v-150h156c131 0 208 -78 208 -200s-77 -200 -208 -200zM346 234c72 0 112 42 112 116s-40 116 -112 116h-161v-232h161z" />
    <glyph glyph-name="germandbls" unicode="&#xdf;" horiz-adv-x="554" 
d="M38 346v74h50v85c0 136 87 203 189 203c124 0 186 -80 186 -179c0 -77 -42 -123 -90 -139c64 -12 137 -71 137 -178c0 -154 -91 -220 -215 -220c-35 0 -54 3 -71 7v76c20 -4 43 -7 71 -7c84 0 131 47 131 138c0 92 -54 140 -141 140h-35v74h35c72 0 98 45 98 106
c0 66 -40 106 -106 106s-105 -46 -105 -130v-502h-84v346h-50z" />
    <glyph glyph-name="agrave" unicode="&#xe0;" horiz-adv-x="518" 
d="M142 145c0 -48 30 -77 83 -77c65 0 141 40 141 154v12h-90c-86 0 -134 -32 -134 -89zM450 322v-322h-66l-14 71c-32 -46 -83 -79 -158 -79c-84 0 -156 45 -156 153s90 165 228 165h82v22c0 78 -49 104 -110 104c-52 0 -94 -29 -105 -79l-74 17c14 85 84 138 179 138
c111 0 194 -56 194 -190zM256 704l68 -144h-68l-121 144h121z" />
    <glyph glyph-name="aacute" unicode="&#xe1;" horiz-adv-x="518" 
d="M142 145c0 -48 30 -77 83 -77c65 0 141 40 141 154v12h-90c-86 0 -134 -32 -134 -89zM450 322v-322h-66l-14 71c-32 -46 -83 -79 -158 -79c-84 0 -156 45 -156 153s90 165 228 165h82v22c0 78 -49 104 -110 104c-52 0 -94 -29 -105 -79l-74 17c14 85 84 138 179 138
c111 0 194 -56 194 -190zM181 560l68 144h121l-121 -144h-68z" />
    <glyph glyph-name="acircumflex" unicode="&#xe2;" horiz-adv-x="518" 
d="M142 145c0 -48 30 -77 83 -77c65 0 141 40 141 154v12h-90c-86 0 -134 -32 -134 -89zM450 322v-322h-66l-14 71c-32 -46 -83 -79 -158 -79c-84 0 -156 45 -156 153s90 165 228 165h82v22c0 78 -49 104 -110 104c-52 0 -94 -29 -105 -79l-74 17c14 85 84 138 179 138
c111 0 194 -56 194 -190zM94 566l153 164h26l153 -164h-86l-80 85l-80 -85h-86z" />
    <glyph glyph-name="atilde" unicode="&#xe3;" horiz-adv-x="518" 
d="M142 145c0 -48 30 -77 83 -77c65 0 141 40 141 154v12h-90c-86 0 -134 -32 -134 -89zM450 322v-322h-66l-14 71c-32 -46 -83 -79 -158 -79c-84 0 -156 45 -156 153s90 165 228 165h82v22c0 78 -49 104 -110 104c-52 0 -94 -29 -105 -79l-74 17c14 85 84 138 179 138
c111 0 194 -56 194 -190zM136 586l-49 38c23 43 63 76 107 76c68 0 81 -40 131 -40c28 0 48 14 66 36l49 -39c-23 -43 -63 -75 -107 -75c-68 0 -81 40 -131 40c-28 0 -48 -14 -66 -36z" />
    <glyph glyph-name="adieresis" unicode="&#xe4;" horiz-adv-x="518" 
d="M142 145c0 -48 30 -77 83 -77c65 0 141 40 141 154v12h-90c-86 0 -134 -32 -134 -89zM450 322v-322h-66l-14 71c-32 -46 -83 -79 -158 -79c-84 0 -156 45 -156 153s90 165 228 165h82v22c0 78 -49 104 -110 104c-52 0 -94 -29 -105 -79l-74 17c14 85 84 138 179 138
c111 0 194 -56 194 -190zM121 651c0 32 25 57 56 57c33 0 57 -25 57 -57s-24 -56 -57 -56c-31 0 -56 24 -56 56zM287 651c0 32 25 57 56 57c33 0 57 -25 57 -57s-24 -56 -57 -56c-31 0 -56 24 -56 56z" />
    <glyph glyph-name="aring" unicode="&#xe5;" horiz-adv-x="518" 
d="M142 145c0 -48 30 -77 83 -77c65 0 141 40 141 154v12h-90c-86 0 -134 -32 -134 -89zM450 322v-322h-66l-14 71c-32 -46 -83 -79 -158 -79c-84 0 -156 45 -156 153s90 165 228 165h82v22c0 78 -49 104 -110 104c-52 0 -94 -29 -105 -79l-74 17c14 85 84 138 179 138
c111 0 194 -56 194 -190zM157 653c0 56 43 100 99 100c58 0 99 -44 99 -100c0 -54 -41 -96 -99 -96c-56 0 -99 42 -99 96zM213 654c0 -25 18 -44 43 -44c26 0 43 19 43 44c0 26 -17 46 -43 46c-25 0 -43 -20 -43 -46z" />
    <glyph glyph-name="ae" unicode="&#xe6;" horiz-adv-x="872" 
d="M822 273v-39h-370c5 -93 51 -166 142 -166c74 0 112 34 140 96l74 -32c-47 -98 -110 -140 -214 -140c-94 0 -158 46 -194 113c-49 -88 -114 -113 -188 -113c-84 0 -156 45 -156 153s90 165 228 165h82v22c0 78 -49 104 -110 104c-52 0 -94 -29 -105 -79l-74 17
c14 85 84 138 179 138c73 0 134 -25 167 -79c38 48 95 79 171 79c149 0 228 -114 228 -239zM142 145c0 -48 30 -77 83 -77c65 0 141 40 141 154v12h-90c-86 0 -134 -32 -134 -89zM594 436c-78 0 -122 -53 -137 -126h277c-13 71 -59 126 -140 126z" />
    <glyph glyph-name="ccedilla" unicode="&#xe7;" horiz-adv-x="538" 
d="M421 161l73 -30c-41 -94 -107 -139 -211 -139c-154 0 -229 125 -229 260s75 260 229 260c104 0 170 -45 211 -139l-73 -30c-26 61 -69 93 -138 93c-98 0 -143 -83 -143 -184s45 -184 143 -184c69 0 112 32 138 93zM365 -60l-83 -175l-95 45l108 130h70z" />
    <glyph glyph-name="egrave" unicode="&#xe8;" 
d="M510 273v-39h-370c5 -93 51 -166 142 -166c74 0 112 34 140 96l74 -32c-47 -98 -110 -140 -214 -140c-153 0 -228 125 -228 260s75 260 228 260c149 0 228 -114 228 -239zM282 436c-78 0 -122 -53 -137 -126h277c-15 72 -59 126 -140 126zM281 704l68 -144h-68l-121 144
h121z" />
    <glyph glyph-name="eacute" unicode="&#xe9;" 
d="M510 273v-39h-370c5 -93 51 -166 142 -166c74 0 112 34 140 96l74 -32c-47 -98 -110 -140 -214 -140c-153 0 -228 125 -228 260s75 260 228 260c149 0 228 -114 228 -239zM282 436c-78 0 -122 -53 -137 -126h277c-15 72 -59 126 -140 126zM202 560l68 144h121l-121 -144
h-68z" />
    <glyph glyph-name="ecircumflex" unicode="&#xea;" 
d="M510 273v-39h-370c5 -93 51 -166 142 -166c74 0 112 34 140 96l74 -32c-47 -98 -110 -140 -214 -140c-153 0 -228 125 -228 260s75 260 228 260c149 0 228 -114 228 -239zM282 436c-78 0 -122 -53 -137 -126h277c-15 72 -59 126 -140 126zM116 566l153 164h26l153 -164
h-86l-80 85l-80 -85h-86z" />
    <glyph glyph-name="edieresis" unicode="&#xeb;" 
d="M510 273v-39h-370c5 -93 51 -166 142 -166c74 0 112 34 140 96l74 -32c-47 -98 -110 -140 -214 -140c-153 0 -228 125 -228 260s75 260 228 260c149 0 228 -114 228 -239zM282 436c-78 0 -122 -53 -137 -126h277c-15 72 -59 126 -140 126zM143 651c0 32 25 57 56 57
c33 0 57 -25 57 -57s-24 -56 -57 -56c-31 0 -56 24 -56 56zM309 651c0 32 25 57 56 57c33 0 57 -25 57 -57s-24 -56 -57 -56c-31 0 -56 24 -56 56z" />
    <glyph glyph-name="igrave" unicode="&#xec;" horiz-adv-x="270" 
d="M93 504h84v-504h-84v504zM132 704l68 -144h-68l-121 144h121z" />
    <glyph glyph-name="iacute" unicode="&#xed;" horiz-adv-x="270" 
d="M93 504h84v-504h-84v504zM71 560l68 144h121l-121 -144h-68z" />
    <glyph glyph-name="icircumflex" unicode="&#xee;" horiz-adv-x="270" 
d="M93 504h84v-504h-84v504zM-28 566l153 164h26l153 -164h-86l-80 85l-80 -85h-86z" />
    <glyph glyph-name="idieresis" unicode="&#xef;" horiz-adv-x="270" 
d="M93 504h84v-504h-84v504zM-4 651c0 32 25 57 56 57c33 0 57 -25 57 -57s-24 -56 -57 -56c-31 0 -56 24 -56 56zM162 651c0 32 25 57 56 57c33 0 57 -25 57 -57s-24 -56 -57 -56c-31 0 -56 24 -56 56z" />
    <glyph glyph-name="eth" unicode="&#xf0;" horiz-adv-x="580" 
d="M254 542l-59 42l38 57c-26 15 -53 27 -80 38l40 61c29 -12 56 -25 80 -39l37 54l58 -42l-34 -51c140 -105 192 -234 192 -410c0 -137 -85 -260 -236 -260s-236 123 -236 260s85 260 236 260c44 0 93 -19 113 -44c-21 57 -58 94 -110 133zM140 252c0 -93 47 -184 150 -184
s150 91 150 184c0 97 -50 184 -150 184c-103 0 -150 -91 -150 -184z" />
    <glyph glyph-name="ntilde" unicode="&#xf1;" horiz-adv-x="577" 
d="M491 355v-355h-84v333c0 69 -31 103 -87 103c-75 0 -144 -85 -144 -225v-211h-84v504h84v-93c37 65 97 101 167 101c92 0 148 -57 148 -157zM163 586l-49 38c23 43 63 76 107 76c68 0 81 -40 131 -40c28 0 48 14 66 36l49 -39c-23 -43 -63 -75 -107 -75
c-68 0 -81 40 -131 40c-28 0 -48 -14 -66 -36z" />
    <glyph glyph-name="ograve" unicode="&#xf2;" horiz-adv-x="592" 
d="M54 252c0 137 91 260 242 260s242 -123 242 -260s-91 -260 -242 -260s-242 123 -242 260zM140 252c0 -93 53 -184 156 -184s156 91 156 184s-53 184 -156 184s-156 -91 -156 -184zM302 704l68 -144h-68l-121 144h121z" />
    <glyph glyph-name="oacute" unicode="&#xf3;" horiz-adv-x="592" 
d="M54 252c0 137 91 260 242 260s242 -123 242 -260s-91 -260 -242 -260s-242 123 -242 260zM140 252c0 -93 53 -184 156 -184s156 91 156 184s-53 184 -156 184s-156 -91 -156 -184zM221 560l68 144h121l-121 -144h-68z" />
    <glyph glyph-name="ocircumflex" unicode="&#xf4;" horiz-adv-x="592" 
d="M54 252c0 137 91 260 242 260s242 -123 242 -260s-91 -260 -242 -260s-242 123 -242 260zM140 252c0 -93 53 -184 156 -184s156 91 156 184s-53 184 -156 184s-156 -91 -156 -184zM130 566l153 164h26l153 -164h-86l-80 85l-80 -85h-86z" />
    <glyph glyph-name="otilde" unicode="&#xf5;" horiz-adv-x="592" 
d="M54 252c0 137 91 260 242 260s242 -123 242 -260s-91 -260 -242 -260s-242 123 -242 260zM140 252c0 -93 53 -184 156 -184s156 91 156 184s-53 184 -156 184s-156 -91 -156 -184zM169 586l-49 38c23 43 63 76 107 76c68 0 81 -40 131 -40c28 0 48 14 66 36l49 -39
c-23 -43 -63 -75 -107 -75c-68 0 -81 40 -131 40c-28 0 -48 -14 -66 -36z" />
    <glyph glyph-name="odieresis" unicode="&#xf6;" horiz-adv-x="592" 
d="M54 252c0 137 91 260 242 260s242 -123 242 -260s-91 -260 -242 -260s-242 123 -242 260zM140 252c0 -93 53 -184 156 -184s156 91 156 184s-53 184 -156 184s-156 -91 -156 -184zM157 651c0 32 25 57 56 57c33 0 57 -25 57 -57s-24 -56 -57 -56c-31 0 -56 24 -56 56z
M323 651c0 32 25 57 56 57c33 0 57 -25 57 -57s-24 -56 -57 -56c-31 0 -56 24 -56 56z" />
    <glyph glyph-name="divide" unicode="&#xf7;" horiz-adv-x="536" 
d="M205 128c0 35 27 63 63 63c35 0 63 -28 63 -63c0 -36 -28 -63 -63 -63c-36 0 -63 27 -63 63zM205 502c0 35 27 63 63 63c35 0 63 -28 63 -63c0 -36 -28 -63 -63 -63c-36 0 -63 27 -63 63zM48 280v74h440v-74h-440z" />
    <glyph glyph-name="oslash" unicode="&#xf8;" horiz-adv-x="592" 
d="M480 547l60 -43l-61 -78c38 -47 59 -109 59 -174c0 -137 -91 -260 -242 -260c-50 0 -93 13 -128 36l-56 -71l-60 43l61 78c-38 47 -59 109 -59 174c0 137 91 260 242 260c50 0 93 -13 128 -36zM452 252c0 37 -9 75 -26 106l-209 -267c22 -14 48 -23 79 -23
c103 0 156 91 156 184zM140 252c0 -38 9 -75 26 -106l209 267c-22 14 -48 23 -79 23c-103 0 -156 -91 -156 -184z" />
    <glyph glyph-name="ugrave" unicode="&#xf9;" horiz-adv-x="577" 
d="M86 149v355h84v-333c0 -69 31 -103 87 -103c75 0 144 85 144 225v211h84v-504h-84v93c-37 -65 -97 -101 -167 -101c-92 0 -148 57 -148 157zM287 704l68 -144h-68l-121 144h121z" />
    <glyph glyph-name="uacute" unicode="&#xfa;" horiz-adv-x="577" 
d="M86 149v355h84v-333c0 -69 31 -103 87 -103c75 0 144 85 144 225v211h84v-504h-84v93c-37 -65 -97 -101 -167 -101c-92 0 -148 57 -148 157zM213 560l68 144h121l-121 -144h-68z" />
    <glyph glyph-name="ucircumflex" unicode="&#xfb;" horiz-adv-x="577" 
d="M86 149v355h84v-333c0 -69 31 -103 87 -103c75 0 144 85 144 225v211h84v-504h-84v93c-37 -65 -97 -101 -167 -101c-92 0 -148 57 -148 157zM121 566l153 164h26l153 -164h-86l-80 85l-80 -85h-86z" />
    <glyph glyph-name="udieresis" unicode="&#xfc;" horiz-adv-x="577" 
d="M86 149v355h84v-333c0 -69 31 -103 87 -103c75 0 144 85 144 225v211h84v-504h-84v93c-37 -65 -97 -101 -167 -101c-92 0 -148 57 -148 157zM147 651c0 32 25 57 56 57c33 0 57 -25 57 -57s-24 -56 -57 -56c-31 0 -56 24 -56 56zM313 651c0 32 25 57 56 57
c33 0 57 -25 57 -57s-24 -56 -57 -56c-31 0 -56 24 -56 56z" />
    <glyph glyph-name="yacute" unicode="&#xfd;" horiz-adv-x="460" 
d="M360 504h88l-250 -708h-86l80 225l-177 483h92l128 -364zM184 560l68 144h121l-121 -144h-68z" />
    <glyph glyph-name="thorn" unicode="&#xfe;" horiz-adv-x="601" 
d="M547 252c0 -151 -76 -260 -224 -260c-61 0 -123 33 -147 70v-266h-84v912h84v-264c17 29 83 68 147 68c148 0 224 -109 224 -260zM461 252c0 108 -57 184 -146 184c-92 0 -146 -76 -146 -184s54 -184 146 -184c89 0 146 76 146 184z" />
    <glyph glyph-name="ydieresis" unicode="&#xff;" horiz-adv-x="460" 
d="M360 504h88l-250 -708h-86l80 225l-177 483h92l128 -364zM97 651c0 32 25 57 56 57c33 0 57 -25 57 -57s-24 -56 -57 -56c-31 0 -56 24 -56 56zM263 651c0 32 25 57 56 57c33 0 57 -25 57 -57s-24 -56 -57 -56c-31 0 -56 24 -56 56z" />
    <glyph glyph-name="dotlessi" unicode="&#x131;" horiz-adv-x="270" 
d="M93 504h84v-504h-84v504z" />
    <glyph glyph-name="Lslash" unicode="&#x141;" horiz-adv-x="521" 
d="M97 700h88v-302l117 65l36 -65l-153 -84v-230h318v-84h-406v265l-65 -37l-36 65l101 56v351z" />
    <glyph glyph-name="lslash" unicode="&#x142;" horiz-adv-x="339" 
d="M124 708h84v-283l66 38l36 -65l-102 -57v-341h-84v296l-66 -37l-36 65l102 56v328z" />
    <glyph glyph-name="OE" unicode="&#x152;" horiz-adv-x="1064" 
d="M595 700h402v-84h-314v-201h254v-84h-254v-247h324v-84h-412v91c-58 -65 -139 -99 -226 -99c-167 0 -314 125 -314 358s147 358 314 358c87 0 168 -34 226 -99v91zM369 624c-124 0 -223 -91 -223 -274s99 -274 223 -274s223 91 223 274s-99 274 -223 274z" />
    <glyph glyph-name="oe" unicode="&#x153;" horiz-adv-x="958" 
d="M908 273v-39h-370c5 -93 51 -166 142 -166c74 0 112 34 140 96l74 -32c-47 -98 -110 -140 -214 -140c-89 0 -151 43 -188 104c-41 -62 -109 -104 -196 -104c-151 0 -242 123 -242 260s91 260 242 260c87 0 155 -42 196 -104c37 62 99 104 188 104
c149 0 228 -114 228 -239zM140 252c0 -93 53 -184 156 -184c100 0 156 91 156 184s-56 184 -156 184c-103 0 -156 -91 -156 -184zM680 436c-78 0 -122 -53 -137 -126h277c-12 70 -59 126 -140 126z" />
    <glyph glyph-name="Scaron" unicode="&#x160;" horiz-adv-x="523" 
d="M440 596l-71 -46c-34 61 -69 74 -111 74c-50 0 -84 -42 -84 -87c0 -69 61 -98 135 -135c79 -40 167 -88 167 -201c0 -57 -20 -106 -54 -143c-38 -42 -94 -66 -156 -66c-116 0 -203 80 -226 189l76 46c23 -83 60 -151 150 -151c36 0 73 14 95 40c17 21 27 51 27 83
c0 68 -64 104 -132 136c-91 43 -170 87 -170 195c0 104 80 178 172 178c99 0 148 -46 182 -112zM250 762l-153 164h86l80 -85l80 85h86l-153 -164h-26z" />
    <glyph glyph-name="scaron" unicode="&#x161;" horiz-adv-x="461" 
d="M236 512c62 0 111 -27 146 -77l-57 -49c-33 36 -57 50 -92 50c-34 0 -61 -23 -61 -64c0 -91 234 -72 234 -220c0 -101 -65 -160 -167 -160c-103 0 -162 68 -188 136l71 39c22 -54 61 -99 117 -99c51 0 81 26 81 79c0 94 -232 62 -232 226c0 78 57 139 148 139zM222 566
l-153 164h86l80 -85l80 85h86l-153 -164h-26z" />
    <glyph glyph-name="Ydieresis" unicode="&#x178;" horiz-adv-x="506" 
d="M209 302l-205 398h97l152 -310l152 310h97l-205 -398v-302h-88v302zM114 847c0 32 25 57 56 57c33 0 57 -25 57 -57s-24 -56 -57 -56c-31 0 -56 24 -56 56zM280 847c0 32 25 57 56 57c33 0 57 -25 57 -57s-24 -56 -57 -56c-31 0 -56 24 -56 56z" />
    <glyph glyph-name="Zcaron" unicode="&#x17d;" horiz-adv-x="555" 
d="M57 616v84h439v-42l-326 -574h336v-84h-461v42l326 574h-314zM262 762l-153 164h86l80 -85l80 85h86l-153 -164h-26z" />
    <glyph glyph-name="zcaron" unicode="&#x17e;" horiz-adv-x="456" 
d="M63 428v76h338v-36l-239 -392h248v-76h-360v36l238 392h-225zM218 566l-153 164h86l80 -85l80 85h86l-153 -164h-26z" />
    <glyph glyph-name="florin" unicode="&#x192;" horiz-adv-x="478" 
d="M98 428l14 76h89l7 33c26 124 94 171 196 171c28 0 53 -7 69 -16l-31 -74c-14 8 -35 14 -54 14c-55 0 -83 -30 -96 -95l-7 -33h114l-14 -76h-114l-91 -469c-24 -124 -98 -171 -196 -171c-28 0 -53 7 -69 16l31 74c14 -8 35 -14 54 -14c55 0 83 30 96 95l91 469h-89z" />
    <glyph glyph-name="circumflex" unicode="&#x2c6;" horiz-adv-x="390" 
d="M29 566l153 164h26l153 -164h-86l-80 85l-80 -85h-86z" />
    <glyph glyph-name="caron" unicode="&#x2c7;" horiz-adv-x="390" 
d="M182 566l-153 164h86l80 -85l80 85h86l-153 -164h-26z" />
    <glyph glyph-name="breve" unicode="&#x2d8;" horiz-adv-x="250" 
d="M165 700h67c0 -61 -46 -109 -111 -109c-63 0 -111 48 -111 109h67c0 -26 18 -45 44 -45c27 0 44 19 44 45z" />
    <glyph glyph-name="dotaccent" unicode="&#x2d9;" horiz-adv-x="270" 
d="M72 644c0 36 28 64 63 64c36 0 63 -28 63 -64c0 -35 -27 -62 -63 -62c-35 0 -63 27 -63 62z" />
    <glyph glyph-name="ring" unicode="&#x2da;" horiz-adv-x="234" 
d="M18 653c0 56 43 100 99 100c58 0 99 -44 99 -100c0 -54 -41 -96 -99 -96c-56 0 -99 42 -99 96zM74 654c0 -25 18 -44 43 -44c26 0 43 19 43 44c0 26 -17 46 -43 46c-25 0 -43 -20 -43 -46z" />
    <glyph glyph-name="ogonek" unicode="&#x2db;" horiz-adv-x="214" 
d="M70 -60h62c-35 -31 -56 -56 -56 -80c0 -19 12 -30 30 -30c23 0 35 14 55 41l43 -35c-32 -48 -60 -71 -108 -71c-52 0 -86 32 -86 83c0 32 22 65 60 92z" />
    <glyph glyph-name="tilde" unicode="&#x2dc;" horiz-adv-x="389" 
d="M67 586l-49 38c23 43 63 76 107 76c68 0 81 -40 131 -40c28 0 48 14 66 36l49 -39c-23 -43 -63 -75 -107 -75c-68 0 -81 40 -131 40c-28 0 -48 -14 -66 -36z" />
    <glyph glyph-name="hungarumlaut" unicode="&#x2dd;" horiz-adv-x="407" 
d="M22 560l68 144h121l-121 -144h-68zM203 560l68 144h121l-121 -144h-68z" />
    <glyph glyph-name="Delta" unicode="&#x394;" horiz-adv-x="668" 
d="M55 0v20l240 680h78l240 -680v-20h-558zM334 579l-174 -503h348z" />
    <glyph glyph-name="Delta" unicode="&#x2206;" horiz-adv-x="668" 
d="M55 0v20l240 680h78l240 -680v-20h-558zM334 579l-174 -503h348z" />
    <glyph glyph-name="Omega" unicode="&#x3a9;" horiz-adv-x="682" 
d="M75 0v76h129s-108 185 -108 364c0 155 89 268 245 268s245 -113 245 -268c0 -179 -108 -364 -108 -364h129v-76h-220v23s111 210 111 417c0 118 -58 192 -157 192s-157 -74 -157 -192c0 -207 111 -417 111 -417v-23h-220z" />
    <glyph glyph-name="Omega" unicode="&#x2126;" horiz-adv-x="682" 
d="M75 0v76h129s-108 185 -108 364c0 155 89 268 245 268s245 -113 245 -268c0 -179 -108 -364 -108 -364h129v-76h-220v23s111 210 111 417c0 118 -58 192 -157 192s-157 -74 -157 -192c0 -207 111 -417 111 -417v-23h-220z" />
    <glyph glyph-name="endash" unicode="&#x2013;" horiz-adv-x="561" 
d="M71 280v74h419v-74h-419z" />
    <glyph glyph-name="emdash" unicode="&#x2014;" horiz-adv-x="759" 
d="M71 280v74h617v-74h-617z" />
    <glyph glyph-name="quoteleft" unicode="&#x2018;" horiz-adv-x="299" 
d="M180 708l69 -205h-64l-127 205h122z" />
    <glyph glyph-name="quoteright" unicode="&#x2019;" horiz-adv-x="299" 
d="M50 503l69 205h122l-127 -205h-64z" />
    <glyph glyph-name="quotesinglbase" unicode="&#x201a;" horiz-adv-x="299" 
d="M50 -14l69 205h122l-127 -205h-64z" />
    <glyph glyph-name="quotedblleft" unicode="&#x201c;" horiz-adv-x="473" 
d="M354 708l69 -205h-64l-127 205h122zM180 708l69 -205h-64l-127 205h122z" />
    <glyph glyph-name="quotedblright" unicode="&#x201d;" horiz-adv-x="473" 
d="M50 503l69 205h122l-127 -205h-64zM224 503l69 205h122l-127 -205h-64z" />
    <glyph glyph-name="quotedblbase" unicode="&#x201e;" horiz-adv-x="473" 
d="M50 -14l69 205h122l-127 -205h-64zM224 -14l69 205h122l-127 -205h-64z" />
    <glyph glyph-name="dagger" unicode="&#x2020;" horiz-adv-x="460" 
d="M60 424v80h130v246h80v-246h130v-80h-130v-474h-80v474h-130z" />
    <glyph glyph-name="daggerdbl" unicode="&#x2021;" horiz-adv-x="460" 
d="M60 424v80h130v246h80v-246h130v-80h-130v-148h130v-80h-130v-246h-80v246h-130v80h130v148h-130z" />
    <glyph glyph-name="bullet" unicode="&#x2022;" horiz-adv-x="324" 
d="M85 330c0 43 34 77 77 77s77 -34 77 -77s-34 -77 -77 -77s-77 34 -77 77z" />
    <glyph glyph-name="perthousand" unicode="&#x2030;" horiz-adv-x="1222" 
d="M58 548c0 89 69 160 160 160s160 -71 160 -160s-69 -159 -160 -159s-160 70 -160 159zM131 548c0 -51 33 -89 87 -89s87 38 87 89c0 50 -33 90 -87 90s-87 -40 -87 -90zM464 151c0 89 69 160 160 160s160 -71 160 -160s-69 -159 -160 -159s-160 70 -160 159zM537 151
c0 -51 33 -89 87 -89s87 38 87 89c0 50 -33 90 -87 90s-87 -40 -87 -90zM844 151c0 89 69 160 160 160s160 -71 160 -160s-69 -159 -160 -159s-160 70 -160 159zM917 151c0 -51 33 -89 87 -89s87 38 87 89c0 50 -33 90 -87 90s-87 -40 -87 -90zM665 729l50 -39l-538 -719
l-50 40z" />
    <glyph glyph-name="guilsinglleft" unicode="&#x2039;" horiz-adv-x="381" 
d="M48 279v62l277 199v-90l-195 -140l195 -140v-90z" />
    <glyph glyph-name="guilsinglright" unicode="&#x203a;" horiz-adv-x="381" 
d="M333 341v-62l-277 -199v90l195 140l-195 140v90z" />
    <glyph glyph-name="fraction" unicode="&#x2044;" horiz-adv-x="608" 
d="M548 729l50 -39l-538 -719l-50 40z" />
    <glyph glyph-name="Euro" unicode="&#x20ac;" horiz-adv-x="628" 
d="M32 387l40 80h57c27 153 122 241 260 241c93 0 158 -41 197 -114l-71 -39c-31 50 -68 73 -126 73c-90 0 -155 -51 -176 -161h237l-40 -80h-204v-74h244l-40 -80h-197c21 -110 86 -161 176 -161c58 0 95 23 126 73l71 -39c-39 -73 -104 -114 -197 -114
c-138 0 -233 88 -260 241h-97l40 80h50v74h-90z" />
    <glyph glyph-name="trademark" unicode="&#x2122;" horiz-adv-x="822" 
d="M28 640v60h281v-60h-105v-340h-71v340h-105zM382 700h74l105 -263l105 263h74v-400h-71v253l-87 -216h-42l-87 216v-253h-71v400z" />
    <glyph glyph-name="partialdiff" unicode="&#x2202;" horiz-adv-x="601" 
d="M48 211c0 167 115 301 283 301c54 0 99 -23 121 -50c-11 107 -68 170 -146 170c-53 0 -92 -25 -118 -84l-82 21c32 83 105 139 203 139c162 0 230 -138 230 -351c0 -177 -81 -365 -285 -365c-123 0 -206 90 -206 219zM323 436c-117 0 -189 -117 -189 -227
c0 -82 46 -141 125 -141c117 0 187 107 187 228c0 85 -41 140 -123 140z" />
    <glyph glyph-name="product" unicode="&#x220f;" horiz-adv-x="552" 
d="M92 0v700h368v-700h-84v624h-200v-624h-84z" />
    <glyph glyph-name="summation" unicode="&#x2211;" horiz-adv-x="550" 
d="M185 624l169 -264v-20l-169 -264h300v-76h-427v20l212 330l-212 330v20h427v-76h-300z" />
    <glyph glyph-name="minus" unicode="&#x2212;" horiz-adv-x="570" 
d="M67 280v74h440v-74h-440z" />
    <glyph glyph-name="radical" unicode="&#x221a;" horiz-adv-x="572" 
d="M467 708h80l-217 -708h-66l-102 313h-104v76h153l86 -257z" />
    <glyph glyph-name="infinity" unicode="&#x221e;" horiz-adv-x="880" 
d="M638 168c-67 0 -144 37 -198 111c-54 -74 -131 -111 -198 -111c-116 0 -184 78 -184 191s68 191 184 191c67 0 144 -37 198 -111c54 74 131 111 198 111c116 0 184 -78 184 -191s-68 -191 -184 -191zM257 244c44 0 103 38 141 115c-38 77 -97 115 -141 115
c-68 0 -113 -42 -113 -115s45 -115 113 -115zM623 244c68 0 113 42 113 115s-45 115 -113 115c-44 0 -103 -38 -141 -115c38 -77 97 -115 141 -115z" />
    <glyph glyph-name="integral" unicode="&#x222b;" horiz-adv-x="478" 
d="M96 -41l112 578c24 124 94 171 196 171c28 0 53 -7 69 -16l-31 -74c-14 8 -35 14 -54 14c-55 0 -83 -30 -96 -95l-112 -578c-24 -124 -98 -171 -196 -171c-28 0 -53 7 -69 16l31 74c14 -8 35 -14 54 -14c55 0 83 30 96 95z" />
    <glyph glyph-name="approxequal" unicode="&#x2248;" horiz-adv-x="604" 
d="M117 168l-49 50c29 53 77 89 132 89c85 0 122 -50 194 -50c35 0 70 17 93 45l49 -51c-29 -54 -77 -88 -132 -88c-85 0 -121 50 -194 50c-35 0 -70 -17 -93 -45zM117 368l-49 50c29 53 77 89 132 89c85 0 122 -50 194 -50c35 0 70 17 93 45l49 -51
c-29 -54 -77 -88 -132 -88c-85 0 -121 50 -194 50c-35 0 -70 -17 -93 -45z" />
    <glyph glyph-name="notequal" unicode="&#x2260;" horiz-adv-x="559" 
d="M80 356v74h225l59 102l64 -37l-37 -65h88v-74h-132l-51 -92h183v-74h-225l-59 -102l-64 37l37 65h-88v74h132l51 92h-183z" />
    <glyph glyph-name="pi" unicode="&#x3c0;" horiz-adv-x="605" 
d="M55 428v76h494v-76h-88v-428h-84v428h-150v-428h-84v428h-88z" />
    <glyph glyph-name="lessequal" unicode="&#x2264;" horiz-adv-x="557" 
d="M55 0v74h440v-74h-440zM101 358v88l349 185v-86l-267 -143l267 -143v-86z" />
    <glyph glyph-name="greaterequal" unicode="&#x2265;" horiz-adv-x="557" 
d="M502 74v-74h-440v74h440zM456 446v-88l-349 -185v86l267 143l-267 143v86z" />
    <glyph glyph-name="lozenge" unicode="&#x25ca;" horiz-adv-x="578" 
d="M248 0l-180 350l180 350h82l180 -350l-180 -350h-82zM289 78l137 272l-137 272l-137 -272z" />
    <glyph glyph-name="apple" horiz-adv-x="786" 
d="M689 617v-595c0 -11 -9 -22 -22 -22c-2 0 -3 0 -7 1l-267 77l-267 -77c-4 -1 -5 -1 -7 -1c-13 0 -22 11 -22 22v595c0 10 7 19 16 22l270 78c3 1 8 2 10 2s7 -1 10 -2l270 -78c9 -3 16 -12 16 -22zM371 366v303l-230 -67c8 -125 106 -225 230 -236zM415 669v-303
c124 11 222 111 230 236zM140 463v-412l231 67v204c-98 8 -183 62 -231 141zM646 51v412c-49 -79 -133 -133 -231 -141v-204z" />
    <glyph glyph-name="No" horiz-adv-x="1254" 
d="M739 0v76h438v-76h-438zM716 448c0 137 91 260 242 260s242 -123 242 -260s-91 -260 -242 -260s-242 123 -242 260zM802 448c0 -93 53 -184 156 -184s156 91 156 184s-53 184 -156 184s-156 -91 -156 -184zM516 700h88v-700h-103l-316 545v-545h-88v700h103l316 -547v547
z" />
    <glyph glyph-name="foursuperior" unicode="&#x2074;" horiz-adv-x="340" 
d="M202 300v77h-170v26l161 297h72v-263h47v-60h-47v-77h-63zM114 437h88v170z" />
    <glyph glyph-name="fivesuperior" unicode="&#x2075;" horiz-adv-x="340" 
d="M48 407l62 10c7 -35 29 -61 66 -61c45 0 69 30 69 75s-23 78 -69 78c-28 0 -54 -15 -70 -37l-50 11l22 217h208v-60h-153l-13 -98c20 15 43 23 68 23c77 0 123 -54 123 -134c0 -82 -55 -135 -135 -135c-66 0 -120 42 -128 111z" />
    <glyph glyph-name="sixsuperior" unicode="&#x2076;" horiz-adv-x="367" 
d="M199 559c77 0 121 -55 121 -132c0 -75 -54 -131 -133 -131c-80 0 -135 56 -135 131c0 28 7 55 21 80l113 197h70l-87 -152c7 5 23 7 30 7zM187 499c-39 0 -69 -27 -69 -72c0 -42 30 -71 69 -71s67 29 67 71c0 45 -28 72 -67 72z" />
    <glyph glyph-name="sevensuperior" unicode="&#x2077;" horiz-adv-x="304" 
d="M132 300h-66l139 340h-159v60h240v-25z" />
    <glyph glyph-name="eightsuperior" unicode="&#x2078;" horiz-adv-x="354" 
d="M177 704c70 0 116 -47 116 -107c0 -34 -22 -66 -47 -81c32 -16 60 -46 60 -96c0 -77 -55 -124 -129 -124s-129 47 -129 124c0 50 28 80 60 96c-25 15 -47 47 -47 81c0 60 46 107 116 107zM177 484c-40 0 -63 -27 -63 -64c0 -36 23 -64 63 -64s63 28 63 64
c0 37 -23 64 -63 64zM177 652c-34 0 -56 -23 -56 -55s22 -55 56 -55s56 23 56 55s-22 55 -56 55z" />
    <glyph glyph-name="ninesuperior" unicode="&#x2079;" horiz-adv-x="367" 
d="M168 441c-77 0 -121 55 -121 132c0 75 54 131 133 131c80 0 135 -56 135 -131c0 -28 -7 -55 -21 -80l-113 -197h-70l87 152c-7 -5 -23 -7 -30 -7zM180 501c39 0 69 27 69 72c0 42 -30 71 -69 71s-67 -29 -67 -71c0 -45 28 -72 67 -72z" />
    <glyph glyph-name="zerosuperior" unicode="&#x2070;" horiz-adv-x="394" 
d="M197 704c96 0 151 -79 151 -204s-55 -204 -151 -204s-151 79 -151 204s55 204 151 204zM197 644c-49 0 -85 -47 -85 -144s36 -144 85 -144s85 47 85 144s-36 144 -85 144z" />
    <glyph glyph-name="ellipsis" unicode="&#x2026;" horiz-adv-x="836" 
d="M90 59c0 35 27 63 63 63c35 0 63 -28 63 -63c0 -36 -28 -63 -63 -63c-36 0 -63 27 -63 63zM355 59c0 35 27 63 63 63c35 0 63 -28 63 -63c0 -36 -28 -63 -63 -63c-36 0 -63 27 -63 63zM620 59c0 35 27 63 63 63c35 0 63 -28 63 -63c0 -36 -28 -63 -63 -63
c-36 0 -63 27 -63 63z" />
    <glyph glyph-name="zero.tn" 
d="M280 708c163 0 246 -140 246 -358s-83 -358 -246 -358s-246 140 -246 358s83 358 246 358zM280 628c-107 0 -158 -107 -158 -278s51 -278 158 -278s158 107 158 278s-51 278 -158 278z" />
    <glyph glyph-name="one.tn" 
d="M316 700h31v-700h-82v574l-129 -75v92z" />
    <glyph glyph-name="two.tn" 
d="M68 0v39l267 342c44 57 57 89 57 133c0 34 -9 60 -26 80c-18 21 -45 34 -84 34c-67 0 -108 -50 -115 -120l-84 16c7 103 90 184 199 184c69 0 119 -24 152 -61c30 -34 44 -78 44 -133c0 -59 -20 -105 -56 -152l-218 -282h287v-80h-423z" />
    <glyph glyph-name="three.tn" 
d="M58 192l84 11c12 -83 58 -131 139 -131s140 52 140 148s-59 148 -140 148c-21 0 -41 -3 -62 -13l-35 47l160 218h-253v80h380v-27l-178 -241c6 2 21 3 28 3c107 0 186 -86 186 -215c0 -134 -93 -228 -226 -228c-116 0 -211 78 -223 200z" />
    <glyph glyph-name="four.tn" 
d="M348 0v149h-304v35l296 516h94v-471h87v-80h-87v-149h-86zM158 229h190v339z" />
    <glyph glyph-name="five.tn" 
d="M63 183l85 16c10 -84 57 -127 127 -127c85 0 134 63 134 156s-48 156 -134 156c-59 0 -107 -33 -141 -78l-53 12l38 382h334v-80h-261l-26 -203c26 27 71 47 115 47c135 0 214 -98 214 -236s-85 -236 -220 -236c-112 0 -198 63 -212 191z" />
    <glyph glyph-name="six.tn" 
d="M280 448c130 0 221 -100 221 -228s-91 -228 -221 -228s-221 100 -221 228c0 48 13 90 36 129l207 359h96l-152 -267c11 5 25 7 34 7zM280 368c-77 0 -133 -57 -133 -148c0 -86 56 -148 133 -148s133 62 133 148c0 91 -56 148 -133 148z" />
    <glyph glyph-name="seven.tn" 
d="M206 0h-88l257 620h-296v80h399v-37z" />
    <glyph glyph-name="eight.tn" 
d="M280 708c113 0 192 -83 192 -187c0 -59 -32 -119 -79 -144c61 -28 104 -89 104 -176c0 -132 -101 -209 -217 -209s-217 77 -217 209c0 87 43 148 104 176c-47 25 -79 85 -79 144c0 104 79 187 192 187zM280 330c-74 0 -129 -49 -129 -129s55 -129 129 -129
s129 49 129 129s-55 129 -129 129zM280 632c-66 0 -108 -47 -108 -111s42 -111 108 -111s108 47 108 111s-42 111 -108 111z" />
    <glyph glyph-name="nine.tn" 
d="M280 252c-130 0 -221 100 -221 228s91 228 221 228s221 -100 221 -228c0 -48 -13 -90 -36 -129l-207 -359h-96l152 267c-11 -5 -25 -7 -34 -7zM280 332c77 0 133 57 133 148c0 86 -56 148 -133 148s-133 -62 -133 -148c0 -91 56 -148 133 -148z" />
    <glyph glyph-name="quotedbl" unicode="&#x22;" horiz-adv-x="441" 
d="M113 476l-25 232h112l-25 -232h-62zM266 476l-25 232h112l-25 -232h-62z" />
    <glyph glyph-name="exclam" unicode="!" horiz-adv-x="345" 
d="M118 700h114l-24 -500h-66zM105 65c0 40 30 71 70 71s70 -31 70 -71c0 -38 -30 -68 -70 -68s-70 30 -70 68z" />
    </font>
</defs>
</svg>
